* Dettagli Torrent   globale  | Commenti (0) 


- Lady Gaga - Tribute to David Bowie (Grammy Awards 2016) [SATRip - Mpeg - Eng Mpeg] 1080i -


Download via torrent:
Categoria bittorrent Musica
Descrizione
Lady Gaga - Tribute to David Bowie (Grammy Awards 2016)



Medley: Space Oddity, Changes, Ziggy Stardust, Suffragette, Rebel Rebel, Fashion, Fame, Let’s Dance, Heroes



General
ID                                       : 1 (0x1)
Complete name                            : D:\Downloads\Lady Gaga - Tribute to David Bowie (Grammy Awards 2016).ts
Format                                   : MPEG-TS
File size                                : 1.33 GiB
Duration                                 : 6 min 48 s
Overall bit rate mode                    : Variable
Overall bit rate                         : 27.9 Mb/s

Video
ID                                       : 308 (0x134)
Menu ID                                  : 1 (0x1)
Format                                   : MPEG Video
Format version                           : Version 2
Format profile                           : [email protected]
Format settings                          : CustomMatrix / BVOP
Format settings, BVOP                    : Yes
Format settings, Matrix                  : Custom
Format settings, GOP                     : M=3, N=12
Format settings, picture structure       : Frame
Codec ID                                 : 2
Duration                                 : 6 min 48 s
Bit rate mode                            : Variable
Bit rate                                 : 26.3 Mb/s
Maximum bit rate                         : 27.6 Mb/s
Width                                    : 1 920 pixels
Height                                   : 1 080 pixels
Display aspect ratio                     : 16:9
Frame rate                               : 25.000 FPS
Color space                              : YUV
Chroma subsampling                       : 4:2:0
Bit depth                                : 8 bits
Scan type                                : Interlaced
Scan order                               : Top Field First
Compression mode                         : Lossy
Bits/(Pixel*Frame)                       : 0.507
Time code of first frame                 : 03:47:10:12
Time code source                         : Group of pictures header
GOP, Open/Closed                         : Open
Stream size                              : 1.25 GiB (94%)
Color primaries                          : BT.709
Transfer characteristics                 : BT.709
Matrix coefficients                      : BT.709

Audio
ID                                       : 256 (0x100)
Menu ID                                  : 1 (0x1)
Format                                   : MPEG Audio
Format version                           : Version 1
Format profile                           : Layer 2
Format settings                          : Intensity Stereo + MS Stereo
Codec ID                                 : 3
Duration                                 : 6 min 48 s
Bit rate mode                            : Constant
Bit rate                                 : 192 kb/s
Channel(s)                               : 2 channels
Sampling rate                            : 48.0 kHz
Frame rate                               : 41.667 FPS (1152 SPF)
Compression mode                         : Lossy
Delay relative to video                  : -47 ms
Stream size                              : 9.36 MiB (1%)
Language                                 : English

Orario di seed e Banda disponibile: sempre attiva, max 800 KB/s


Info: Per scaricare devi usare un client come uTorrent o Transmission
AnnounceURL
udp://tracker.tntvillage.scambioetico.org:2710/announce
Hash 40b6dc665a7134c9f2dcb12de4963657f6bf7a27
Peers seeds: 1 , leech: 1
Size 1.33 GB
Completato 1x
Aggiunto 27.04.18 - 20:04:10
Uploader   alicerasi
Votazione (Voti: 1)


Condividi questo bittorrent:


html/blog:


bbcode/forum:




Aggiungi Commento


counter