* Dettagli Torrent   globale  | Commenti (1) 


- CJ7 - Creatura extraterrestre (2008).H264.italian.Ac3-5.1.sub.ita.eng.MIRCrew -


Download via torrent:
Categoria bittorrent BDRip
Descrizione
CJ7 - Creatura extraterrestre 2008.XviD.italian.Ac3-5.1.sub.ita.eng.MIRCrew


NO FOUND ONLY ORIGINAL RELEASE



ENGLISH SUBTITLE INSIDE


My release is always in double track audio italian and Original audio
for select it use VLC or dvd player home
not use wmp

CJ7 - Creatura extraterrestre

2008








Titolo originale Cheung Gong 7 hou
Lingua originale cinese
Paese di produzione Hong Kong
Anno 2008
Durata 89 min
Rapporto 2,35 : 1
Genere commedia, fantascienza
Regia Stephen Chow
Soggetto Stephen Chow



   Stephen Chow: Ti
   Jiao Xu: Dicky
   Chi Chung Lam: Il boss
   Shing-Cheung Lee: Mr. Cao
   Kitty Zhang Yuqi: Miss Yuen
   Min Hun Fung: Insegnante P. E.



Ti (Stephen Chow) e suo figlio Dicky (Xu Jiao), orfano di madre, cercano di sopravvivere in onestà nonostante il lavoro umile del padre e la retta scolastica non irrisoria dell'istituto in cui Ti manda il figlio affinché possa avere possibilità migliori delle sue.



A poor Chinese laborer learns important lessons after his son gets a strange new toy. ......










[spoiler]
General
Complete name                            : CJ7 - Creatura extraterrestre 2008.Ita.sub.ita.eng - MIRCrew\CJ7 - Creatura extraterrestre 2008.ita.Sub.ita.eng.MIRCrew.avi
Format                                   : AVI
Format/Info                              : Audio Video Interleave
File size                                : 1.32 GiB
Duration                                 : 1h 28mn
Overall bit rate                         : 2 133 Kbps
Writing application                      : VirtualDubMod 1.5.10.2 (build 2540/release)
Writing library                          : VirtualDubMod build 2540/release

Video
ID                                       : 0
Format                                   : MPEG-4 Visual
Format profile                           : [email protected]
Format settings, BVOP                    : Yes
Format settings, QPel                    : No
Format settings, GMC                     : No warppoints
Format settings, Matrix                  : Default (H.263)
Codec ID                                 : XVID
Codec ID/Hint                            : XviD
Duration                                 : 1h 28mn
Bit rate                                 : 1 483 Kbps
Width                                    : 720 pixels
Height                                   : 304 pixels
Display aspect ratio                     : 2.35:1
Frame rate                               : 23.976 fps
Color space                              : YUV
Chroma subsampling                       : 4:2:0
Bit depth                                : 8 bits
Scan type                                : Progressive
Compression mode                         : Lossy
Bits/(Pixel*Frame)                       : 0.283
Stream size                              : 937 MiB (70%)

Audio
ID                                       : 1
Format                                   : AC-3
Format/Info                              : Audio Coding 3
Mode extension                           : CM (complete main)
Codec ID                                 : 2000
Duration                                 : 1h 28mn
Bit rate mode                            : Constant
Bit rate                                 : 640 Kbps
Channel(s)                               : 6 channels
Channel positions                        : Front: L C R, Side: L R, LFE
Sampling rate                            : 48.0 KHz
Bit depth                                : 16 bits
Compression mode                         : Lossy
Stream size                              : 404 MiB (30%)
Alignment                                : Split accross interleaves
Interleave, duration                     : 42 ms (1.00 video frame)
Interleave, preload duration             : 500 ms


[/spoiler]



Info: Per scaricare devi usare un client come uTorrent o Transmission
AnnounceURL
udp://tracker.coppersurfer.tk:6969/announce
Hash a5d6469a95df57d0d0b72bcfe2832136379f7d05
Peers seeds: 31 , leech: 4
Size 1.32 GB
Completato 696x
Aggiunto 23.04.18 - 22:04:59
Uploader   robbyrs
Votazione (Voti: 2)


Condividi questo bittorrent:


html/blog:


bbcode/forum:




Aggiungi Commento
Ultimi commenti
  
Siete veramente in gamba!
Grazie per il tempo che ci dedicate!
24/04 21.59
Tutti commenti (1)


counter