* Dettagli Torrent   globale  | Commenti (1) 


- Ghost Academy (2012).H264.italian.Spanish.Ac3-5.1.sub.ita.eng.MIRCrew -


Download via torrent:
Categoria bittorrent BDRip
Descrizione
Ghost Academy - Promoción fantasma (2012).H264.italian.Spanish.Ac3-5.1.sub.ita.eng.MIRCrew




NO FOUND ONLY ORIGINAL RELEASE



My release is always in double track audio italian and Original audio
for select it use VLC or dvd player home
not use wmp

ENGLISH SUBTITLE INSIDE

Ghost Academy

Promoción fantasma

(2012)









Titolo originale Promoción fantasma
Lingua originale spagnolo
Paese di produzione Spagna
Anno 2012
Durata 88 min
Rapporto 2,35:1
Genere commedia, fantastico
Regia Javier Ruiz Caldera
Sceneggiatura Cristóbal Garrido, Adolfo Valor
Produttore Francisco Sánchez,Simón de Santiago,Sandra Hermida,Edmon Roch,Eneko Lizarraga
Distribuzione (Italia) Notorious Pictures
Fotografia Arnau Valls
Montaggio Alberto de Toro
Scenografia Javier Alvariño



   Raúl Arévalo: Modesto
   Alexandra Jiménez: Tina Escalonilla
   Andrea Duro: Mariví Herrera
   Jaime Olías: Jorge
   Alex Maruny: Daniel "Dani" Franqueza
   Anna Castillo: Ángela Pérez Blanco
   Aura Garrido: Elsa
   Javier Bódalo: Pinfloy
   Joaquín Reyes: psichiatra vivo
   Luis Varela: psichiatra morto
   Carlos Areces: José María "Chema" Otegui
   Silvia Abril: Manuela
   Elena Irureta: Ministro della Pubblica Istruzione



Modesto è un professore di storia di scuola superiore. Viene cacciato da svariate scuole, ritenuto da docenti e alunni eccentrico, poiché sin da giovane riesce a vedere i fantasmi. Tutto cambia quando viene chiamato ad insegnare in una scuola dove accadono cose inspiegabili.



A teacher with paranormal abilities helps a group of ghosts graduate high school.









[spoiler]
General
Unique ID                                : 105371307529656038143078210612783518262 (0x4F45C690ACB656C785C6519D953C9236)
Complete name                            : Ghost Academy (2012).ita.spa.sub.NUita.eng-MIRCrew\Ghost Academy (2012).ita.spa.sub.ita.eng-MIRCrew.mkv
Format                                   : Matroska
Format version                           : Version 2
File size                                : 1.41 GiB
Duration                                 : 1h 28mn
Overall bit rate                         : 2 286 Kbps
Movie name                               : MIRCrew
Encoded date                             : UTC 2018-02-18 10:33:42
Writing application                      : Lavf54.63.100
Writing library                          : Lavf54.63.100
COPYRIGHT                                : robbyrs-Il Corsaronero

Video
ID                                       : 1
Format                                   : AVC
Format/Info                              : Advanced Video Codec
Format profile                           : [email protected]
Format settings, CABAC                   : Yes
Format settings, ReFrames                : 2 frames
Codec ID                                 : V_MPEG4/ISO/AVC
Duration                                 : 1h 28mn
Bit rate                                 : 1 399 Kbps
Width                                    : 720 pixels
Height                                   : 304 pixels
Display aspect ratio                     : 2.40:1
Frame rate mode                          : Variable
Frame rate                               : 23.976 fps
Color space                              : YUV
Chroma subsampling                       : 4:2:0
Bit depth                                : 8 bits
Scan type                                : Progressive
Bits/(Pixel*Frame)                       : 0.267
Stream size                              : 850 MiB (59%)
Writing library                          : x264 core 130 r2273
Encoding settings                        : cabac=1 / ref=2 / deblock=1:0:0 / analyse=0x1:0x131 / me=hex / subme=7 / psy=1 / psy_rd=1.00:0.00 / mixed_ref=0 / me_range=16 / chroma_me=1 / trellis=1 / 8x8dct=0 / cqm=0 / deadzone=21,11 / fast_pskip=1 / chroma_qp_offset=-2 / threads=3 / lookahead_threads=1 / sliced_threads=0 / nr=0 / decimate=1 / interlaced=0 / bluray_compat=0 / constrained_intra=0 / bframes=3 / b_pyramid=0 / b_adapt=1 / b_bias=0 / direct=3 / weightb=1 / open_gop=0 / weightp=2 / keyint=230 / keyint_min=23 / scenecut=40 / intra_refresh=0 / rc_lookahead=40 / rc=abr / mbtree=1 / bitrate=1399 / ratetol=1.0 / qcomp=0.60 / qpmin=10 / qpmax=69 / qpstep=4 / vbv_maxrate=24000 / vbv_bufsize=24000 / nal_hrd=none / ip_ratio=1.40 / aq=1:1.00
Language                                 : Italian
Default                                  : Yes
Forced                                   : No
DURATION                                 : 01:28:19.586000000
NUMBER_OF_FRAMES                         : 127063
NUMBER_OF_BYTES                          : 7686907023
_STATISTICS_WRITING_APP                  : mkvmerge v13.0.0 ('The Juggler') 64bit
_STATISTICS_WRITING_DATE_UTC             : 2018-02-18 10:33:42
_STATISTICS_TAGS                         : BPS DURATION NUMBER_OF_FRAMES NUMBER_OF_BYTES

Audio #1
ID                                       : 2
Format                                   : AC-3
Format/Info                              : Audio Coding 3
Mode extension                           : CM (complete main)
Codec ID                                 : A_AC3
Duration                                 : 1h 28mn
Bit rate mode                            : Constant
Bit rate                                 : 448 Kbps
Channel(s)                               : 6 channels
Channel positions                        : Front: L C R, Side: L R, LFE
Sampling rate                            : 48.0 KHz
Bit depth                                : 16 bits
Compression mode                         : Lossy
Delay relative to video                  : 1mn 5s
Stream size                              : 283 MiB (20%)
Language                                 : Italian
Default                                  : Yes
Forced                                   : No
DURATION                                 : 01:28:19.680000000
NUMBER_OF_FRAMES                         : 165615
NUMBER_OF_BYTES                          : 423974400
_STATISTICS_WRITING_APP                  : mkvmerge v13.0.0 ('The Juggler') 64bit
_STATISTICS_WRITING_DATE_UTC             : 2018-02-18 10:33:42
_STATISTICS_TAGS                         : BPS DURATION NUMBER_OF_FRAMES NUMBER_OF_BYTES

Audio #2
ID                                       : 3
Format                                   : AC-3
Format/Info                              : Audio Coding 3
Mode extension                           : CM (complete main)
Codec ID                                 : A_AC3
Duration                                 : 1h 28mn
Bit rate mode                            : Constant
Bit rate                                 : 448 Kbps
Channel(s)                               : 6 channels
Channel positions                        : Front: L C R, Side: L R, LFE
Sampling rate                            : 48.0 KHz
Bit depth                                : 16 bits
Compression mode                         : Lossy
Delay relative to video                  : 1mn 5s
Stream size                              : 283 MiB (20%)
Language                                 : Spanish
Default                                  : No
Forced                                   : No
DURATION                                 : 01:28:19.616000000
NUMBER_OF_FRAMES                         : 165613
NUMBER_OF_BYTES                          : 423969280
_STATISTICS_WRITING_APP                  : mkvmerge v13.0.0 ('The Juggler') 64bit
_STATISTICS_WRITING_DATE_UTC             : 2018-02-18 10:33:42
_STATISTICS_TAGS                         : BPS DURATION NUMBER_OF_FRAMES NUMBER_OF_BYTES

Menu
00:00:00.000                             : :Chapter 01
00:09:00.874                             : :00:09:00.874
00:17:40.559                             : :00:17:40.559
00:28:25.078                             : :00:28:25.078
00:38:45.740                             : :00:38:45.740
00:46:50.433                             : :00:46:50.433
00:53:50.477                             : :00:53:50.477
01:03:46.322                             : :01:03:46.322
01:15:37.533                             : :01:15:37.533
01:23:39.014                             : :01:23:39.014


[/spoiler]



Info: Per scaricare devi usare un client come uTorrent o Transmission
AnnounceURL
udp://tracker.coppersurfer.tk:6969/announce
Hash f8d495642b3d8b17893bc6784d797bae23f812fc
Peers seeds: 23 , leech: 3
Size 1.41 GB
Completato 987x
Aggiunto 22.04.18 - 14:04:29
Uploader   robbyrs
Votazione (Voti: 2)


Condividi questo bittorrent:


html/blog:


bbcode/forum:




Aggiungi Commento
Ultimi commenti
  
Grazie mille!
24/04 21.57
Tutti commenti (1)


counter