* Dettagli Torrent   globale  | Commenti (0) 


- Deserto rosso sangue (2016).H264.italian.english.Ac3-5.1.sub.ita.eng.MIRCrew -


Download via torrent:
Categoria bittorrent BDRip
Descrizione
It Stains The Sands Red - Deserto rosso sangue  (2016).H264.italian.english.Ac3-5.1.sub.ita.eng.MIRCrew


NO FOUND ONLY ORIGINAL RELEASE




My release is always in double track audio italian and Original audio
for select it use VLC or dvd player home
not use wmp

Deserto rosso sangue

It Stains The Sands Red

(2016)








 GENERE: Drama, Horror, Thriller
 ANNO: 2016
 REGIA: Colin Minihan
 SCENEGGIATURA: Colin Minihan, Stuart Ortiz
 FOTOGRAFIA: Steven McRae
 MONTAGGIO: Colin Minihan
 MUSICHE: Blitz//Berlin
 PRODUZIONE: Koch Media Home Ente
 PAESE: USA
 DURATA: 92



Brittany Allen ...
Molly
Juan Riedinger Juan Riedinger ...
Smalls
Merwin Mondesir Merwin Mondesir ...
Nick
Kristopher Higgins Kristopher Higgins ...
Ted
Andrew Supanz Andrew Supanz ...
Jason
Nico David Nico David ...
Chase
Michael Filipowich Michael Filipowich ...
Jimmy
Dylan Playfair Dylan Playfair ...
Robbie
Warren E. Thomas Warren E. Thomas ...
Soldier 1
Steve Judkins Steve Judkins ...
Soldier 2
Max Christensen Max Christensen ...
Young Chase
Kyle McCachen Kyle McCachen ...
Flashback Boyfriend
Shawn O'Brion Shawn O'Brion ...
Dead Blake
Rest of cast listed alphabetically:
Drew Marvick Drew Marvick ...
Pipe Wrench Zombie



In preda a un'apocalisse zombi, una donna tormentata di Las Vegas con un passato oscuro si ritrova bloccata nel deserto con uno zombi solitario e famelico.



In the throes of a zombie apocalypse, a troubled woman from Las Vegas with a dark past finds herself stranded in the desert with a lone and ravenous zombie on her tail.











[spoiler]
General
Unique ID                                : 73472766652704777144172662986137654433 (0x374657135F3600982896E0362E77D4A1)
Complete name                            : Deserto rosso sangue - It Stains The Sands Red (2016).H264.ita.eng.sub.ita.eng - MIRCrew\Deserto rosso sangue - It Stains The Sands Red (2016).H264.ita.eng.sub.ita.eng - MIRCrew.mkv
Format                                   : Matroska
Format version                           : Version 2
File size                                : 1.40 GiB
Duration                                 : 1h 32mn
Overall bit rate                         : 2 175 Kbps
Movie name                               : MIRCrew
Encoded date                             : UTC 2018-04-18 18:33:45
Writing application                      : Lavf54.63.100
Writing library                          : Lavf54.63.100
COPYRIGHT                                : robbyrs - Il Corsaronero

Video
ID                                       : 1
Format                                   : AVC
Format/Info                              : Advanced Video Codec
Format profile                           : [email protected]
Format settings, CABAC                   : Yes
Format settings, ReFrames                : 2 frames
Codec ID                                 : V_MPEG4/ISO/AVC
Duration                                 : 1h 32mn
Bit rate                                 : 1 236 Kbps
Nominal bit rate                         : 1 300 Kbps
Width                                    : 720 pixels
Height                                   : 300 pixels
Display aspect ratio                     : 2.40:1
Frame rate mode                          : Variable
Frame rate                               : 24.000 fps
Color space                              : YUV
Chroma subsampling                       : 4:2:0
Bit depth                                : 8 bits
Scan type                                : Progressive
Bits/(Pixel*Frame)                       : 0.238
Stream size                              : 816 MiB (57%)
Writing library                          : x264 core 130 r2273
Encoding settings                        : cabac=1 / ref=2 / deblock=1:0:0 / analyse=0x1:0x131 / me=hex / subme=7 / psy=1 / psy_rd=1.00:0.00 / mixed_ref=0 / me_range=16 / chroma_me=1 / trellis=1 / 8x8dct=0 / cqm=0 / deadzone=21,11 / fast_pskip=1 / chroma_qp_offset=-2 / threads=3 / lookahead_threads=1 / sliced_threads=0 / nr=0 / decimate=1 / interlaced=0 / bluray_compat=0 / constrained_intra=0 / bframes=3 / b_pyramid=0 / b_adapt=1 / b_bias=0 / direct=3 / weightb=1 / open_gop=0 / weightp=2 / keyint=240 / keyint_min=24 / scenecut=40 / intra_refresh=0 / rc_lookahead=40 / rc=abr / mbtree=1 / bitrate=1300 / ratetol=1.0 / qcomp=0.60 / qpmin=10 / qpmax=69 / qpstep=4 / vbv_maxrate=24000 / vbv_bufsize=24000 / nal_hrd=none / ip_ratio=1.40 / aq=1:1.00
Language                                 : Italian
Default                                  : Yes
Forced                                   : No
DURATION                                 : 01:32:19.250000000
NUMBER_OF_FRAMES                         : 132942
NUMBER_OF_BYTES                          : 6885485000
_STATISTICS_WRITING_APP                  : mkvmerge v9.5.0 ('Quiet Fire') 64bit
_STATISTICS_WRITING_DATE_UTC             : 2018-04-14 09:44:16
_STATISTICS_TAGS                         : BPS DURATION NUMBER_OF_FRAMES NUMBER_OF_BYTES

Audio #1
ID                                       : 2
Format                                   : AC-3
Format/Info                              : Audio Coding 3
Mode extension                           : CM (complete main)
Codec ID                                 : A_AC3
Duration                                 : 1h 32mn
Bit rate mode                            : Constant
Bit rate                                 : 448 Kbps
Channel(s)                               : 6 channels
Channel positions                        : Front: L C R, Side: L R, LFE
Sampling rate                            : 48.0 KHz
Bit depth                                : 16 bits
Compression mode                         : Lossy
Delay relative to video                  : 1mn 5s
Stream size                              : 296 MiB (21%)
Title                                    : AC3 ITA
Language                                 : Italian
Default                                  : No
Forced                                   : No
DURATION                                 : 01:32:19.296000000
NUMBER_OF_FRAMES                         : 173103
NUMBER_OF_BYTES                          : 443143680
_STATISTICS_WRITING_APP                  : mkvmerge v9.5.0 ('Quiet Fire') 64bit
_STATISTICS_WRITING_DATE_UTC             : 2018-04-14 09:44:16
_STATISTICS_TAGS                         : BPS DURATION NUMBER_OF_FRAMES NUMBER_OF_BYTES

Audio #2
ID                                       : 3
Format                                   : AC-3
Format/Info                              : Audio Coding 3
Mode extension                           : CM (complete main)
Codec ID                                 : A_AC3
Duration                                 : 1h 32mn
Bit rate mode                            : Constant
Bit rate                                 : 448 Kbps
Channel(s)                               : 6 channels
Channel positions                        : Front: L C R, Side: L R, LFE
Sampling rate                            : 48.0 KHz
Bit depth                                : 16 bits
Compression mode                         : Lossy
Delay relative to video                  : 1mn 5s
Stream size                              : 296 MiB (21%)
Title                                    : AC3 ENG
Language                                 : English
Default                                  : No
Forced                                   : No
DURATION                                 : 01:32:19.264000000
NUMBER_OF_FRAMES                         : 173102
NUMBER_OF_BYTES                          : 443141120
_STATISTICS_WRITING_APP                  : mkvmerge v9.5.0 ('Quiet Fire') 64bit
_STATISTICS_WRITING_DATE_UTC             : 2018-04-14 09:44:16
_STATISTICS_TAGS                         : BPS DURATION NUMBER_OF_FRAMES NUMBER_OF_BYTES

Menu
00:00:00.000                             : :00:00:00.000
00:07:05.342                             : :00:07:05.342
00:14:28.201                             : :00:14:28.201
00:20:13.838                             : :00:20:13.838
00:29:27.099                             : :00:29:27.099
00:39:02.590                             : :00:39:02.590
00:50:56.804                             : :00:50:56.804
00:59:52.756                             : :00:59:52.756
01:08:53.129                             : :01:08:53.129
01:16:19.950                             : :01:16:19.950
01:25:27.706                             : :01:25:27.706
01:30:23.259                             : :01:30:23.259



[/spoiler]



Info: Per scaricare devi usare un client come uTorrent o Transmission
AnnounceURL
udp://tracker.coppersurfer.tk:6969/announce
Hash 1e72706705d099235e8595ceee549de2f582440b
Peers seeds: 21 , leech: 4
Size 1.40 GB
Completato 955x
Aggiunto 20.04.18 - 18:04:56
Uploader   robbyrs
Votazione (Voti: 1)


Condividi questo bittorrent:


html/blog:


bbcode/forum:




Aggiungi Commento


counter