* Dettagli Torrent   globale  | Commenti (1) 


- Gerald s Game - Il gioco di Gerald (2017).720pH264.italian.English.Ac3-5.1.sub.eng.MIRCrew -


Download via torrent:
Categoria bittorrent BDRip
Descrizione
Gerald s Game - Il gioco di Gerald (2017).720pH264.italian.English.Ac3-5.1.sub.eng.MIRCrew



NO FOUND ONLY ORIGINAL RELEASE



My release is always in double track audio italian and Original audio
for select it use VLC or dvd player home
not use wmp

Gerald's Game

Il gioco di Gerald


(2017)

Quality MIRCrew on HD 720p da  2,0 gb








Titolo originale Gerald's Game
Lingua originale inglese
Paese di produzione Stati Uniti d'America
Anno 2017
Durata 103 min
Dati tecnici colore
Genere thriller
Regia Mike Flanagan
Soggetto Stephen King (romanzo)



   Carla Gugino: Jessie Burlingame
   Bruce Greenwood: Gerald Burlingame
   Carel Struycken: Raymond Andrew Joubert
   Henry Thomas: Tom Mahout
   Kate Siegel: Sally Mahout
   Chiara Aurelia: Jessie Burlingame da giovane



Gerald e Jessie sono conosciuti da tutti come la perfetta coppia sposata che non ha mai avuto intoppi. Purtroppo però, essi sono tutt'altro. Un weekend, decidono di stare per qualche giorno nella loro casa al lago, per passare del tempo insieme...........



While trying to spice up their marriage in their remote lake house, Jessie must fight to survive when her husband dies unexpectedly, leaving her handcuffed to their bed fram










[spoiler]

Complete name                            : Gerald's Game (2017).720p.ita.eng.sub.eng-MIRCrew\Gerald's Game (2017).720p.ita.eng.sub.eng-MIRCrew.mkv
Format                                   : Matroska
Format version                           : Version 2
File size                                : 1.97 GiB
Duration                                 : 1h 43mn
Overall bit rate                         : 2 734 Kbps
Movie name                               : MIRCrew
Encoded date                             : UTC 2017-10-01 10:00:08
Writing application                      : Lavf54.63.100
Writing library                          : Lavf54.63.100
COPYRIGHT                                : robbyrs - Il Corsaronero

Video
ID                                       : 1
Format                                   : AVC
Format/Info                              : Advanced Video Codec
Format profile                           : [email protected]
Format settings, CABAC                   : Yes
Format settings, ReFrames                : 2 frames
Codec ID                                 : V_MPEG4/ISO/AVC
Duration                                 : 1h 43mn
Bit rate                                 : 1 850 Kbps
Width                                    : 1 280 pixels
Height                                   : 528 pixels
Display aspect ratio                     : 2.40:1
Frame rate mode                          : Variable
Frame rate                               : 24.390 fps
Color space                              : YUV
Chroma subsampling                       : 4:2:0
Bit depth                                : 8 bits
Scan type                                : Progressive
Bits/(Pixel*Frame)                       : 0.112
Stream size                              : 1.29 GiB (65%)
Writing library                          : x264 core 130 r2273
Encoding settings                        : cabac=1 / ref=2 / deblock=1:0:0 / analyse=0x1:0x131 / me=hex / subme=7 / psy=1 / psy_rd=1.00:0.00 / mixed_ref=0 / me_range=16 / chroma_me=1 / trellis=1 / 8x8dct=0 / cqm=0 / deadzone=21,11 / fast_pskip=1 / chroma_qp_offset=-2 / threads=3 / lookahead_threads=1 / sliced_threads=0 / nr=0 / decimate=1 / interlaced=0 / bluray_compat=0 / constrained_intra=0 / bframes=3 / b_pyramid=0 / b_adapt=1 / b_bias=0 / direct=3 / weightb=1 / open_gop=0 / weightp=2 / keyint=240 / keyint_min=24 / scenecut=40 / intra_refresh=0 / rc_lookahead=40 / rc=abr / mbtree=1 / bitrate=1850 / ratetol=1.0 / qcomp=0.60 / qpmin=10 / qpmax=69 / qpstep=4 / vbv_maxrate=24000 / vbv_bufsize=24000 / nal_hrd=none / ip_ratio=1.40 / aq=1:1.00
Language                                 : Italian
Default                                  : Yes
Forced                                   : No
DURATION                                 : 01:43:24.156000000
NUMBER_OF_FRAMES                         : 148750
NUMBER_OF_BYTES                          : 2691699289
_STATISTICS_WRITING_APP                  : mkvmerge v11.0.0 ('Alive') 32bit
_STATISTICS_WRITING_DATE_UTC             : 2017-10-01 10:00:08
_STATISTICS_TAGS                         : BPS DURATION NUMBER_OF_FRAMES NUMBER_OF_BYTES

Audio #1
ID                                       : 2
Format                                   : AC-3
Format/Info                              : Audio Coding 3
Mode extension                           : CM (complete main)
Codec ID                                 : A_AC3
Duration                                 : 1h 43mn
Bit rate mode                            : Constant
Bit rate                                 : 448 Kbps
Channel(s)                               : 6 channels
Channel positions                        : Front: L C R, Side: L R, LFE
Sampling rate                            : 48.0 KHz
Bit depth                                : 16 bits
Compression mode                         : Lossy
Delay relative to video                  : 1mn 5s
Stream size                              : 331 MiB (16%)
Title                                    : 5.1
Language                                 : Italian
Default                                  : Yes
Forced                                   : No
DURATION                                 : 01:43:24.800000000
NUMBER_OF_FRAMES                         : 193900
NUMBER_OF_BYTES                          : 347468800
_STATISTICS_WRITING_APP                  : mkvmerge v11.0.0 ('Alive') 32bit
_STATISTICS_WRITING_DATE_UTC             : 2017-10-01 10:00:08
_STATISTICS_TAGS                         : BPS DURATION NUMBER_OF_FRAMES NUMBER_OF_BYTES

Audio #2
ID                                       : 3
Format                                   : AC-3
Format/Info                              : Audio Coding 3
Mode extension                           : CM (complete main)
Codec ID                                 : A_AC3
Duration                                 : 1h 43mn
Bit rate mode                            : Constant
Bit rate                                 : 448 Kbps
Channel(s)                               : 6 channels
Channel positions                        : Front: L C R, Side: L R, LFE
Sampling rate                            : 48.0 KHz
Bit depth                                : 16 bits
Compression mode                         : Lossy
Delay relative to video                  : 1mn 5s
Stream size                              : 331 MiB (16%)
Title                                    : 5.1
Language                                 : English
Default                                  : No
Forced                                   : No
DURATION                                 : 01:43:24.160000000
NUMBER_OF_FRAMES                         : 193880
NUMBER_OF_BYTES                          : 496332800
_STATISTICS_WRITING_APP                  : mkvmerge v11.0.0 ('Alive') 32bit
_STATISTICS_WRITING_DATE_UTC             : 2017-10-01 10:00:08
_STATISTICS_TAGS                         : BPS DURATION NUMBER_OF_FRAMES NUMBER_OF_BYTES






Info: Per scaricare devi usare un client come uTorrent o Transmission
AnnounceURL
udp://tracker.coppersurfer.tk:6969/announce
Hash 511884ceecbf1c71d1cd26f917952ffc5bd8e2e5
Peers seeds: 72 , leech: 5
Size 1.97 GB
Completato 2429x
Aggiunto 17.04.18 - 20:04:28
Uploader   robbyrs
Votazione (Voti: 1)


Condividi questo bittorrent:


html/blog:


bbcode/forum:




Aggiungi Commento
Ultimi commenti
  
Grazie.
22/04 12.46
Tutti commenti (1)


counter