* Dettagli Torrent   globale  | Commenti (0) 


- James Horner - The Mask + The Legend Of Zorro (1998 2005) [Mp3 320 Kbps] -


Download via torrent:
Categoria bittorrent Musica
Descrizione
James Horner - The Mask Of Zorro (Music From The Motion Picture) (199



.: Dati Album :.

Anno: 1998                  

.: Tracklist :.

The Plaza Of Execution 8:28
Elena And Esperanza 8:20
The Ride 3:25
Elena's Truth 4:11
The Fencing Lesson 5:29
Tornado In The Barracks 5:12
The Confession 3:43
Zorro's Theme 3:01
The Mine (Montero's Vision) 3:00
Stealing The Map 6:30
"Leave No Witnesses…" 13:21
Diego's Goodbye 5:31
Marc Anthony And Tina Arena I Want To Spend My Lifetime Loving You 4:41

.: Dati Tecnici :.

General
Complete name                            : D:\Downloads\The Mask Of Zorro - Music From The Motion Picture 320cbr (Big Papi) 1998 Soundtrack\01 Plaza Of Execution.mp3
Format                                   : MPEG Audio
File size                                : 19.4 MiB
Duration                                 : 8 min 28 s
Overall bit rate mode                    : Constant
Overall bit rate                         : 320 kb/s
Album                                    : The Mask Of Zorro
Part/Position                            : 1
Part/Total                               : 1
Track name                               : Plaza Of Execution
Track name/Position                      : 1
Track name/Total                         : 13
Compilation                              : Yes
Performer                                : James Horner
Composer                                 : James Horner (B. 1953)
Genre                                    : Soundtrack
Recorded date                            : 1998
Writing library                          : LAME3.99r
BPM                                      : 0 BPM
Encoding Tool                            : iTunes 11.1.3.8
iTunes_CDDB_1                            : 9011860D+336627+13+150+38257+75765+91147+110005+134685+158087+174772+188312+201812+231090+291127+315405
iTunes_CDDB_TrackNumber                  : 1
iTunNORM                                 :  000001ED 00000166 000039D8 0000286B 00072B8E 00072BBC 00007B39 00007A6A 0005596E 0006F5DB
Play Gap                                 : 0

Audio
Format                                   : MPEG Audio
Format version                           : Version 1
Format profile                           : Layer 3
Format settings                          : Joint stereo
Duration                                 : 8 min 28 s
Bit rate mode                            : Constant
Bit rate                                 : 320 kb/s
Channel(s)                               : 2 channels
Sampling rate                            : 44.1 kHz
Frame rate                               : 38.281 FPS (1152 SPF)
Compression mode                         : Lossy
Stream size                              : 19.4 MiB (100%)
Writing library                          : LAME3.99r
Encoding settings                        : -m j -V 4 -q 2 -lowpass 20.5

James Horner ?– The Legend Of Zorro - Original Motion Picture Soundtrack (2005)



.: Dati Album :.

Anno: 2005                

.: Tracklist :.

Collecting The Ballots 3:25
Stolen Votes 6:31
To The Governor's ... And Then Elena 4:05
"This Is Who I Am" 3:06
Classroom Justice 1:50
The Cortez Ranch 6:35
A Proposal With Pearls / Perilous Times 3:59
Joaquin's Capture And Zorro's Rescue 5:01
Jailbreak / Reunited 5:37
A Dinner Of Pigeon / Setting The Explosives 5:04
Mad Dash / Zorro Unmasked 3:21
Just One Drop Of Nitro 2:41
The Train 11:11
Statehood Proclaimed 5:01
"My Family Is My Life ..." 8:15

.: Dati Tecnici :.

General
Complete name                            : D:\Downloads\James Horner - The Legend Of Zorro (2005)\01 - Collecting The Ballots.mp3
Format                                   : MPEG Audio
File size                                : 7.83 MiB
Duration                                 : 3 min 25 s
Overall bit rate mode                    : Constant
Overall bit rate                         : 320 kb/s
Album                                    : The Legend Of Zorro
Track name                               : Collecting The Ballots
Track name/Position                      : 01
Performer                                : James Horner
Genre                                    : Soundtrack
Recorded date                            : 2005
Writing library                          : LAME3.99r

Audio
Format                                   : MPEG Audio
Format version                           : Version 1
Format profile                           : Layer 3
Format settings                          : Joint stereo
Duration                                 : 3 min 25 s
Bit rate mode                            : Constant
Bit rate                                 : 320 kb/s
Channel(s)                               : 2 channels
Sampling rate                            : 44.1 kHz
Frame rate                               : 38.281 FPS (1152 SPF)
Compression mode                         : Lossy
Stream size                              : 7.83 MiB (100%)
Writing library                          : LAME3.99r
Encoding settings                        : -m j -V 4 -q 0 -lowpass 20.5

Grazie a chi ha condiviso in rete questa colonna sonora

Info: Per scaricare devi usare un client come uTorrent o Transmission
AnnounceURL
udp://tracker.tntvillage.scambioetico.org:2710/announce
Hash 4c5e35aa88206ab8614f345b0f5d4da09abcf698
Peers seeds: 1 , leech: 0
Size 344.52 MB
Completato 0x
Aggiunto 15.04.18 - 18:04:43
Uploader   alicerasi
Votazione (Voti: 0)


Condividi questo bittorrent:


html/blog:


bbcode/forum:




Aggiungi Commento


counter