* Dettagli Torrent   globale  | Commenti (1) 


- La fuga dell assassino (2017).720p.H264.italian.English.Ac3-5.1.sub.ita.MIRCrew -


Download via torrent:
Categoria bittorrent BDRip
Descrizione
The Shadow Effect - La fuga dell assassino (2017).720p.H264.italian.English.Ac3-5.1.sub.ita.MIRCrew


NO FOUND ONLY ORIGINAL RELEASE



My release is always in double track audio italian and Original audio
for select it use VLC or dvd player home
not use wmp

La fuga dell assassino

The Shadow Effect


(2017)

Qualità MIRCrew in HD 720p da 1,7 gb







Genere Azione
Anno produzione 2017
Registi Obin Olson; Amariah Olson
Durata 93



Jonathan Rhys Meyers; Cam Gigandet; Michael Biehn; Brit Shaw; Sean Freeland; Michael Aaron Milligan; Jon Kohler; Cullen Moss; Mark Ashworth; Andi Matheny; Jose Miguel Vasquez; Jaye Tyroff; Chase Anderson; Cullen Ries; Jae Greene



Dieci anni dopo la sconfitta dell'Impero Sotterraneo di Mikene, la Terra e tutti i suoi abitanti hanno finalmente trovato la pace, grazie anche all'energia fotonica, una fonte energetica pulita e praticamente infinita.



A young man's life is turned upside down when his violent dreams begin to blend with reality










[spoiler]
General
Unique ID                                : 129637929951120645610636147142262326043 (0x61875B6C5B0277FC9874B7BCECD5031B)
Complete name                            : La fuga dell assassino - The Shadow Effect (2017).720p.H264.ita.eng.sub.ita.eng-MIRCrew\La fuga dell assassino - The Shadow Effect  (2017).720p.H264.ita.eng.sub.ita.eng-MIRCrew.mkv
Format                                   : Matroska
Format version                           : Version 2
File size                                : 1.68 GiB
Duration                                 : 1h 33mn
Overall bit rate                         : 2 553 Kbps
Movie name                               : MIRCrew
Encoded date                             : UTC 2018-04-12 14:04:43
Writing application                      : Lavf54.63.100
Writing library                          : Lavf54.63.100
COPYRIGHT                                : robbyrs -Il Corsronero

Video
ID                                       : 1
Format                                   : AVC
Format/Info                              : Advanced Video Codec
Format profile                           : [email protected]
Format settings, CABAC                   : Yes
Format settings, ReFrames                : 2 frames
Codec ID                                 : V_MPEG4/ISO/AVC
Duration                                 : 1h 33mn
Bit rate                                 : 1 800 Kbps
Width                                    : 1 280 pixels
Height                                   : 528 pixels
Display aspect ratio                     : 2.40:1
Frame rate mode                          : Variable
Frame rate                               : 23.976 fps
Color space                              : YUV
Chroma subsampling                       : 4:2:0
Bit depth                                : 8 bits
Scan type                                : Progressive
Bits/(Pixel*Frame)                       : 0.111
Stream size                              : 1.14 GiB (68%)
Writing library                          : x264 core 130 r2273
Encoding settings                        : cabac=1 / ref=2 / deblock=1:0:0 / analyse=0x1:0x131 / me=hex / subme=7 / psy=1 / psy_rd=1.00:0.00 / mixed_ref=0 / me_range=16 / chroma_me=1 / trellis=1 / 8x8dct=0 / cqm=0 / deadzone=21,11 / fast_pskip=1 / chroma_qp_offset=-2 / threads=3 / lookahead_threads=1 / sliced_threads=0 / nr=0 / decimate=1 / interlaced=0 / bluray_compat=0 / constrained_intra=0 / bframes=3 / b_pyramid=0 / b_adapt=1 / b_bias=0 / direct=3 / weightb=1 / open_gop=0 / weightp=2 / keyint=230 / keyint_min=23 / scenecut=40 / intra_refresh=0 / rc_lookahead=40 / rc=abr / mbtree=1 / bitrate=1800 / ratetol=1.0 / qcomp=0.60 / qpmin=10 / qpmax=69 / qpstep=4 / vbv_maxrate=24000 / vbv_bufsize=24000 / nal_hrd=none / ip_ratio=1.40 / aq=1:1.00
Language                                 : Italian
Default                                  : Yes
Forced                                   : No
DURATION                                 : 01:33:54.963000000
NUMBER_OF_FRAMES                         : 135104
NUMBER_OF_BYTES                          : 7804561640
_STATISTICS_WRITING_APP                  : mkvmerge v9.5.0 ('Quiet Fire') 64bit
_STATISTICS_WRITING_DATE_UTC             : 2018-04-10 09:39:22
_STATISTICS_TAGS                         : BPS DURATION NUMBER_OF_FRAMES NUMBER_OF_BYTES

Audio #1
ID                                       : 2
Format                                   : AC-3
Format/Info                              : Audio Coding 3
Mode extension                           : CM (complete main)
Codec ID                                 : A_AC3
Duration                                 : 1h 33mn
Bit rate mode                            : Constant
Bit rate                                 : 384 Kbps
Channel(s)                               : 6 channels
Channel positions                        : Front: L C R, Side: L R, LFE
Sampling rate                            : 48.0 KHz
Bit depth                                : 16 bits
Compression mode                         : Lossy
Delay relative to video                  : 1mn 5s
Stream size                              : 258 MiB (15%)
Language                                 : Italian
Default                                  : Yes
Forced                                   : No
DURATION                                 : 01:33:44.576000000
NUMBER_OF_FRAMES                         : 175768
NUMBER_OF_BYTES                          : 269979648
_STATISTICS_WRITING_APP                  : mkvmerge v9.5.0 ('Quiet Fire') 64bit
_STATISTICS_WRITING_DATE_UTC             : 2018-04-10 09:39:22
_STATISTICS_TAGS                         : BPS DURATION NUMBER_OF_FRAMES NUMBER_OF_BYTES

Audio #2
ID                                       : 3
Format                                   : AC-3
Format/Info                              : Audio Coding 3
Mode extension                           : CM (complete main)
Codec ID                                 : A_AC3
Duration                                 : 1h 33mn
Bit rate mode                            : Constant
Bit rate                                 : 384 Kbps
Channel(s)                               : 6 channels
Channel positions                        : Front: L C R, Side: L R, LFE
Sampling rate                            : 48.0 KHz
Bit depth                                : 16 bits
Compression mode                         : Lossy
Delay relative to video                  : 1mn 5s
Stream size                              : 258 MiB (15%)
Language                                 : English
Default                                  : No
Forced                                   : No
DURATION                                 : 01:33:54.976000000
NUMBER_OF_FRAMES                         : 176093
NUMBER_OF_BYTES                          : 450798080
_STATISTICS_WRITING_APP                  : mkvmerge v9.5.0 ('Quiet Fire') 64bit
_STATISTICS_WRITING_DATE_UTC             : 2018-04-10 09:39:22
_STATISTICS_TAGS                         : BPS DURATION NUMBER_OF_FRAMES NUMBER_OF_BYTES

Menu
00:00:00.000                             : :00:00:00.000
00:05:33.333                             : :00:05:33.333
00:11:15.592                             : :00:11:15.592
00:18:57.011                             : :00:18:57.011
00:25:03.043                             : :00:25:03.043
00:31:15.165                             : :00:31:15.165
00:35:42.015                             : :00:35:42.015
00:43:29.857                             : :00:43:29.857
00:48:44.713                             : :00:48:44.713
00:56:13.829                             : :00:56:13.829
01:01:57.130                             : :01:01:57.130
01:08:24.058                             : :01:08:24.058
01:15:08.713                             : :01:15:08.713
01:19:37.731                             : :01:19:37.731
01:24:30.190                             : :01:24:30.190
01:30:52.697                             : :01:30:52.697



[/spoiler]



Info: Per scaricare devi usare un client come uTorrent o Transmission
AnnounceURL
udp://tracker.coppersurfer.tk:6969/announce
Hash 9a2e6d6e22ec5f61a5631031332e8704977938dd
Peers seeds: 129 , leech: 8
Size 1.68 GB
Completato 4240x
Aggiunto 13.04.18 - 23:04:36
Uploader   robbyrs
Votazione (Voti: 1)


Condividi questo bittorrent:


html/blog:


bbcode/forum:




Aggiungi Commento
Ultimi commenti
  
Ottimo
V: 10
A: 10
15/04 10.02
Tutti commenti (1)


counter