* Dettagli Torrent   globale  | Commenti (1) 


- Altamira - Finding Altamira (2016) Antonio Banderas.H264.italian.english.Ac3-5.1.sub.ita.MIRCrew -


Download via torrent:
Categoria bittorrent BDRip
Descrizione
Finding Altamira - Altamira (2016) Antonio Banderas.H264.italian.english.Ac3-5.1.sub.ita.MIRCrew



NO FOUND ONLY ORIGINAL RELEASE




My release is always in double track audio italian and Original audio
for select it use VLC or dvd player home
not use wmp

Altamira

Finding Altamira


(2016)







Lingua originale inglese
Paese di produzione Regno Unito, Francia, Spagna
Anno 2016
Durata 97 min
Genere storico, drammatico
Regia Hugh Hudson
Soggetto Olivia Hetreed, José Luis López-Linares
Sceneggiatura Olivia Hetreed, José Luis López-Linares
Produttore Lucrecia Botin, Álvaro Longoria, Andy Paterson
Produttore esecutivo Laura Bickford
Fotografia José Luis Alcaine
Montaggio Pia Di Ciaula



Antonio Banderas: Marcelino
Clément Sibony: Émile Cartailhac
Rupert Everett: Il monsignore
Javivi: Harlé
Irene Escolar: Maria adulta
Pierre Niney: Paul Ratier
Nicholas Farrell: Vilanova
Allegra Allen: Giovane Maria Sautuola
Lluís Soler: Mero
Tábata Cerezo: Pasi
Golshifteh Farahani: Conchita



Spagna 1878: La vita e gli eventi di Marcelino Sanz de Sautuola, l'uomo che ha scoperto la Grotta di Altamira.



Life and events of the man who realized one of the most important discoveries of the 19th century: Altamira's caves.











[spoiler]
General
Unique ID                                : 250912851586475850369579603912974832204 (0xBCC40EB3BED804078BF1D1E920AE924C)
Complete name                            : Altamira (2016).H264.ita.eng.sub.ita-MIRCrew\Altamira (2016).H264.ita.eng.sub.ita-MIRCrew.mkv
Format                                   : Matroska
Format version                           : Version 2
File size                                : 1.33 GiB
Duration                                 : 1h 33mn
Overall bit rate                         : 2 029 Kbps
Movie name                               : MIRCrew
Encoded date                             : UTC 2018-04-08 18:56:19
Writing application                      : mkvmerge v5.4.0 ('Piper') built on Mar 10 2012 13:34:39
Writing library                          : Lavf54.63.100
COPYRIGHT                                : robbyrs-Il Corsaronero

Video
ID                                       : 1
Format                                   : AVC
Format/Info                              : Advanced Video Codec
Format profile                           : [email protected]
Format settings, CABAC                   : Yes
Format settings, ReFrames                : 2 frames
Codec ID                                 : V_MPEG4/ISO/AVC
Duration                                 : 1h 33mn
Bit rate                                 : 1 280 Kbps
Width                                    : 720 pixels
Height                                   : 404 pixels
Display aspect ratio                     : 16:9
Frame rate mode                          : Variable
Frame rate                               : 24.000 fps
Color space                              : YUV
Chroma subsampling                       : 4:2:0
Bit depth                                : 8 bits
Scan type                                : Progressive
Bits/(Pixel*Frame)                       : 0.183
Stream size                              : 818 MiB (60%)
Writing library                          : x264 core 130 r2273
Encoding settings                        : cabac=1 / ref=2 / deblock=1:0:0 / analyse=0x1:0x131 / me=hex / subme=7 / psy=1 / psy_rd=1.00:0.00 / mixed_ref=0 / me_range=16 / chroma_me=1 / trellis=1 / 8x8dct=0 / cqm=0 / deadzone=21,11 / fast_pskip=1 / chroma_qp_offset=-2 / threads=3 / lookahead_threads=1 / sliced_threads=0 / nr=0 / decimate=1 / interlaced=0 / bluray_compat=0 / constrained_intra=0 / bframes=3 / b_pyramid=0 / b_adapt=1 / b_bias=0 / direct=3 / weightb=1 / open_gop=0 / weightp=2 / keyint=240 / keyint_min=24 / scenecut=40 / intra_refresh=0 / rc_lookahead=40 / rc=abr / mbtree=1 / bitrate=1280 / ratetol=1.0 / qcomp=0.60 / qpmin=10 / qpmax=69 / qpstep=4 / vbv_maxrate=24000 / vbv_bufsize=24000 / nal_hrd=none / ip_ratio=1.40 / aq=1:1.00
Language                                 : Italian
Default                                  : Yes
Forced                                   : No
DURATION                                 : 01:33:41.542000000
NUMBER_OF_FRAMES                         : 134917
NUMBER_OF_BYTES                          : 9257777436
_STATISTICS_WRITING_APP                  : mkvmerge v9.5.0 ('Quiet Fire') 64bit
_STATISTICS_WRITING_DATE_UTC             : 2018-03-31 12:06:16
_STATISTICS_TAGS                         : BPS DURATION NUMBER_OF_FRAMES NUMBER_OF_BYTES

Audio #1
ID                                       : 2
Format                                   : AC-3
Format/Info                              : Audio Coding 3
Mode extension                           : CM (complete main)
Codec ID                                 : A_AC3
Duration                                 : 1h 33mn
Bit rate mode                            : Constant
Bit rate                                 : 384 Kbps
Channel(s)                               : 6 channels
Channel positions                        : Front: L C R, Side: L R, LFE
Sampling rate                            : 48.0 KHz
Bit depth                                : 16 bits
Compression mode                         : Lossy
Delay relative to video                  : -42ms
Stream size                              : 257 MiB (19%)
Language                                 : Italian
Default                                  : Yes
Forced                                   : No

Audio #2
ID                                       : 3
Format                                   : AC-3
Format/Info                              : Audio Coding 3
Mode extension                           : CM (complete main)
Codec ID                                 : A_AC3
Duration                                 : 1h 33mn
Bit rate mode                            : Constant
Bit rate                                 : 384 Kbps
Channel(s)                               : 6 channels
Channel positions                        : Front: L C R, Side: L R, LFE
Sampling rate                            : 48.0 KHz
Bit depth                                : 16 bits
Compression mode                         : Lossy
Delay relative to video                  : -42ms
Stream size                              : 257 MiB (19%)
Language                                 : English
Default                                  : No
Forced                                   : No

Menu
00:00:00.000                             : :00:00:00.000
00:07:05.342                             : :00:07:05.342
00:14:28.201                             : :00:14:28.201
00:20:13.838                             : :00:20:13.838
00:29:27.099                             : :00:29:27.099
00:39:02.590                             : :00:39:02.590
00:50:56.804                             : :00:50:56.804
00:59:52.756                             : :00:59:52.756
01:08:53.129                             : :01:08:53.129
01:16:19.950                             : :01:16:19.950
01:25:27.706                             : :01:25:27.706
01:30:23.259                             : :01:30:23.259


[/spoiler]



Info: Per scaricare devi usare un client come uTorrent o Transmission
AnnounceURL
udp://tracker.coppersurfer.tk:6969/announce
Hash d60498230483a5da0ac4ca7f699a77a819b134e5
Peers seeds: 41 , leech: 7
Size 1.33 GB
Completato 1353x
Aggiunto 12.04.18 - 21:04:52
Uploader   robbyrs
Votazione (Voti: 1)


Condividi questo bittorrent:


html/blog:


bbcode/forum:




Aggiungi Commento
Ultimi commenti
  
A: 10
V: 10
grazie.
14/04 18.46
Tutti commenti (1)


counter