* Dettagli Torrent   globale  | Commenti (0) 


- 120 Battiti al minuto.H264.italian.French.Ac3-5.1.sub.ita.eng.Fre.MIRCrew -


Download via torrent:
Categoria bittorrent BDRip
Descrizione
BPM (Beats Per Minute) - 120 Battiti al minuto - 120 battements par minute (2017).H264.italian.French.Ac3-5.1.sub.ita.eng.FreMIRCrew



NO FOUND ONLY ORIGINAL RELEASE



My release is always in double track audio italian and Original audio
for select it use VLC or dvd player home
not use wmp

SOTTOTITOLI ITALIANI PER NON UDENTI INCLUSI
ENGLISH SUBTITLE INSIDE

BPM (Beats Per Minute)

120 Battiti al minuto

120 battements par minute

(2017)








Titolo originale 120 battements par minute
Lingua originale francese
Paese di produzione Francia
Anno 2017
Durata 140 min
Genere drammatico
Regia Robin Campillo
Sceneggiatura Robin Campillo, Philippe Mangeot
Produttore Hugues Charbonneau, Marie-Ange Luciani
Casa di produzione Les Films de Pierre
Distribuzione (Italia) Teodora Film
Fotografia Jeanne Lapoirie
Montaggio Robin Campillo
Musiche Arnaud Rebotini



   Nahuel Pérez Biscayart: Sean
   Arnaud Valois: Nathan
   Adèle Haenel: Sophie
   Antoine Reinartz: Thibault
   Félix Maritaud: Max
   Médhi Touré: Germain
   Aloïse Sauvage: Eva
   Simon Bourgade: Luc
   Catherine Vinatier: Hélène
   Saadia Bentaieb: Madre di Sean
   Ariel Borenstein: Jérémie



Nei primi anni novanta, mentre l'AIDS miete vittime da quasi dieci anni, gli attivisti di Act Up-Paris moltiplicano le azioni contro l'indifferenza generale. Un gruppo di attivisti irrompe in una conferenza sull'AIDS, lancia sangue finto sui partecipanti e ammanetta il relatore.........................



Members of the advocacy group ACT UP Paris demand action by the government and pharmaceutical companies to combat the AIDS epidemic in the early 1990s.










[spoiler]
General
Unique ID                                : 199714240716591771494107302581845860617 (0x963F904B79B933C8ADC57E9B403FA109)
Complete name                            : 120 Battiti al minuto - 120 battements par minute (2017) ita Fre.sub.ita.NUita.eng.fre-MIRCrew\120 Battiti al minuto - 120 battements par minute (2017) ita Fre.sub.ita.NUita.eng.fre-MIRCrew.mkv
Format                                   : Matroska
Format version                           : Version 2
File size                                : 1.78 GiB
Duration                                 : 2h 23mn
Overall bit rate                         : 1 774 Kbps
Movie name                               : MIRCRew
Encoded date                             : UTC 2018-04-06 14:01:41
Writing application                      : mkvmerge v5.4.0 ('Piper') built on Mar 10 2012 13:34:39
Writing library                          : Lavf54.63.100
COPYRIGHT                                : robbyrs-ilcorsaronero

Video
ID                                       : 1
Format                                   : AVC
Format/Info                              : Advanced Video Codec
Format profile                           : [email protected]
Format settings, CABAC                   : Yes
Format settings, ReFrames                : 2 frames
Codec ID                                 : V_MPEG4/ISO/AVC
Duration                                 : 2h 23mn
Bit rate                                 : 1 280 Kbps
Width                                    : 720 pixels
Height                                   : 304 pixels
Display aspect ratio                     : 2.40:1
Original display aspect ratio            : 2.40:1
Frame rate mode                          : Variable
Frame rate                               : 23.976 fps
Color space                              : YUV
Chroma subsampling                       : 4:2:0
Bit depth                                : 8 bits
Scan type                                : Progressive
Bits/(Pixel*Frame)                       : 0.244
Stream size                              : 1.23 GiB (69%)
Title                                    : 120 Battiti al minuto - 120 battements par minute (2017) ita Fre_1
Writing library                          : x264 core 130 r2273
Encoding settings                        : cabac=1 / ref=2 / deblock=1:0:0 / analyse=0x1:0x131 / me=hex / subme=7 / psy=1 / psy_rd=1.00:0.00 / mixed_ref=0 / me_range=16 / chroma_me=1 / trellis=1 / 8x8dct=0 / cqm=0 / deadzone=21,11 / fast_pskip=1 / chroma_qp_offset=-2 / threads=3 / lookahead_threads=1 / sliced_threads=0 / nr=0 / decimate=1 / interlaced=0 / bluray_compat=0 / constrained_intra=0 / bframes=3 / b_pyramid=0 / b_adapt=1 / b_bias=0 / direct=3 / weightb=1 / open_gop=0 / weightp=2 / keyint=230 / keyint_min=23 / scenecut=40 / intra_refresh=0 / rc_lookahead=40 / rc=abr / mbtree=1 / bitrate=1280 / ratetol=1.0 / qcomp=0.60 / qpmin=10 / qpmax=69 / qpstep=4 / vbv_maxrate=24000 / vbv_bufsize=24000 / nal_hrd=none / ip_ratio=1.40 / aq=1:1.00
Language                                 : Italian
Default                                  : Yes
Forced                                   : No
DURATION                                 : 02:22:56.735000000
NUMBER_OF_FRAMES                         : 205636
NUMBER_OF_BYTES                          : 10719820844
_STATISTICS_WRITING_APP                  : mkvmerge v8.3.0 ('Over the Horizon') 64bit
_STATISTICS_WRITING_DATE_UTC             : 2018-01-25 17:00:32
_STATISTICS_TAGS                         : BPS DURATION NUMBER_OF_FRAMES NUMBER_OF_BYTES

Audio #1
ID                                       : 2
Format                                   : AC-3
Format/Info                              : Audio Coding 3
Mode extension                           : CM (complete main)
Codec ID                                 : A_AC3
Duration                                 : 2h 23mn
Bit rate mode                            : Constant
Bit rate                                 : 384 Kbps
Channel(s)                               : 6 channels
Channel positions                        : Front: L C R, Side: L R, LFE
Sampling rate                            : 48.0 KHz
Bit depth                                : 16 bits
Compression mode                         : Lossy
Delay relative to video                  : -5ms
Stream size                              : 394 MiB (22%)
Title                                    : Ita Ac3 5.1
Language                                 : Italian
Default                                  : Yes
Forced                                   : No
DURATION                                 : 02:23:37.719000000
NUMBER_OF_FRAMES                         : 269303
NUMBER_OF_BYTES                          : 482590976
_STATISTICS_WRITING_APP                  : mkvmerge v8.3.0 ('Over the Horizon') 64bit
_STATISTICS_WRITING_DATE_UTC             : 2018-01-25 17:00:32
_STATISTICS_TAGS                         : BPS DURATION NUMBER_OF_FRAMES NUMBER_OF_BYTES

Audio #2
ID                                       : 3
Format                                   : MPEG Audio
Format version                           : Version 1
Format profile                           : Layer 3
Mode                                     : Joint stereo
Mode extension                           : MS Stereo
Codec ID                                 : A_MPEG/L3
Codec ID/Hint                            : MP3
Duration                                 : 2h 22mn
Bit rate mode                            : Constant
Bit rate                                 : 128 Kbps
Channel(s)                               : 2 channels
Sampling rate                            : 48.0 KHz
Compression mode                         : Lossy
Delay relative to video                  : -42ms
Stream size                              : 131 MiB (7%)
Title                                    : Fre Mp3
Writing library                          : LAME3.99r
Encoding settings                        : -m j -V 4 -q 3 -lowpass 17 -b 128
Language                                 : French
Default                                  : No
Forced                                   : No



[/spoiler]



Info: Per scaricare devi usare un client come uTorrent o Transmission
AnnounceURL
udp://tracker.coppersurfer.tk:6969/announce
Hash 8f39b5acbd9fc47d6946d477b7e39925370000f9
Peers seeds: 41 , leech: 5
Size 1.78 GB
Completato 989x
Aggiunto 12.04.18 - 16:04:16
Uploader   robbyrs
Votazione (Voti: 0)


Condividi questo bittorrent:


html/blog:


bbcode/forum:




Aggiungi Commento


counter