* Dettagli Torrent   globale  | Commenti (0) 


- In Mezzo Scorre Il Fiume (1992).XviD.italian.english.Ac3.sub.ita.eng.MIRCrew -


Download via torrent:
Categoria bittorrent BDRip
Descrizione
A River Runs Through It - In Mezzo Scorre Il Fiume (1992).XviD.italian.english.Ac3.sub.ita.eng.MIRCrew


NO FOUND ONLY ORIGINAL RELEASE




My release is always in double track audio italian and Original audio
for select it use VLC or dvd player home
not use wmp

In Mezzo Scorre Il Fiume

A River Runs Through It

(1992)








Riconoscimenti:

Il film ha vinto il Golden Globes alla migliore fotografia.

Titolo originale A River Runs Through It
Lingua originale inglese
Paese di produzione Stati Uniti d'America
Anno 1992
Durata 123 min
Genere drammatico
Regia Robert Redford
Soggetto Norman Maclean
Sceneggiatura Richard Friedenberg
Fotografia Philippe Rousselot



Craig Sheffer, Brad Pitt, Tom Skerritt, Brenda Blethyn, Emily Ann Lloyd, Edie McClurg, Stephen Shellen, Vann Gravage, Nicole Burdette, Susan Traylor, Michael Cudlitz, Rob Cox, Buck Simmonds, Fred Oakland, David Creamer, Madonna Reubens, John Reubens, Arnold Richardson, William Hootkins, Al Richardson



La storia di due fratelli, del loro padre - un ministro di culto - e del fiume che in qualche modo forgia le loro vite. Nel film, ambientato nello stato americano del Montana tra il 1910 e il 1935, la pesca con la mosca diventa al tempo stesso una metafora e un luogo di incontro, giacché riunisce in sé la scienza, lo sport, la religione, l'arte, nonché, a tratti, una comune ricerca della misteriosa grazia.



The Maclean brothers, Paul and Norman, live a relatively idyllic life in rural Montana, spending much of their time fly fishing. The sons of a minister, the boys eventually part company when Norman moves east to attend college, leaving his rebellious brother to find trouble back home. When Norman finally returns, the siblings resume their fishing outings, and assess both where they've been and where they're going.













[spoiler]
General
Complete name                            : In Mezzo Scorre Il Fiume - A River Runs Through It (1992).ita.eng.sub.ita.eng.MIRCrew\In Mezzo Scorre Il Fiume - A River Runs Through It (1992).ita.eng.sub.ita.eng.MIRCrew.avi
Format                                   : AVI
Format/Info                              : Audio Video Interleave
File size                                : 1.75 GiB
Duration                                 : 2h 3mn
Overall bit rate                         : 2 026 Kbps
Writing application                      : VirtualDubMod 1.5.10.2 (build 2540/release)
Writing library                          : VirtualDubMod build 2540/release

Video
ID                                       : 0
Format                                   : MPEG-4 Visual
Format settings, BVOP                    : Yes
Format settings, QPel                    : No
Format settings, GMC                     : No warppoints
Format settings, Matrix                  : Default (H.263)
Codec ID                                 : DX50
Codec ID/Hint                            : DivX 5
Duration                                 : 2h 3mn
Bit rate                                 : 1 500 Kbps
Width                                    : 720 pixels
Height                                   : 384 pixels
Display aspect ratio                     : 1.875
Frame rate                               : 23.976 fps
Color space                              : YUV
Chroma subsampling                       : 4:2:0
Bit depth                                : 8 bits
Scan type                                : Progressive
Compression mode                         : Lossy
Bits/(Pixel*Frame)                       : 0.226
Stream size                              : 1.30 GiB (74%)
Writing library                          : Intel(R) MPEG-4 encoder based on Intel(R) IPP 6.1 build 137.20[6.1.137.763]

Audio #1
ID                                       : 1
Format                                   : AC-3
Format/Info                              : Audio Coding 3
Mode extension                           : CM (complete main)
Codec ID                                 : 2000
Duration                                 : 2h 3mn
Bit rate mode                            : Constant
Bit rate                                 : 256 Kbps
Channel(s)                               : 2 channels
Channel positions                        : Front: L R
Sampling rate                            : 48.0 KHz
Bit depth                                : 16 bits
Compression mode                         : Lossy
Stream size                              : 226 MiB (13%)
Alignment                                : Split accross interleaves
Interleave, duration                     : 42 ms (1.00 video frame)
Interleave, preload duration             : 500 ms

Audio #2
ID                                       : 2
Format                                   : AC-3
Format/Info                              : Audio Coding 3
Mode extension                           : CM (complete main)
Codec ID                                 : 2000
Duration                                 : 2h 3mn
Bit rate mode                            : Constant
Bit rate                                 : 256 Kbps
Channel(s)                               : 2 channels
Channel positions                        : Front: L R
Sampling rate                            : 48.0 KHz
Bit depth                                : 16 bits
Compression mode                         : Lossy
Stream size                              : 226 MiB (13%)
Alignment                                : Split accross interleaves
Interleave, duration                     : 42 ms (1.00 video frame)
Interleave, preload duration             : 500 ms



Info: Per scaricare devi usare un client come uTorrent o Transmission
AnnounceURL
udp://tracker.coppersurfer.tk:6969/announce
Hash 57fb358a549b6d882f798946d900ef6731c78c87
Peers seeds: 23 , leech: 4
Size 1.75 GB
Completato 872x
Aggiunto 08.04.18 - 13:04:52
Uploader   robbyrs
Votazione (Voti: 0)


Condividi questo bittorrent:


html/blog:


bbcode/forum:




Aggiungi Commento


counter