* Dettagli Torrent   globale  | Commenti (0) 


- Killer Joe (2011) bonus 18m.H264.italian.english.Ac3-5.1.sub.ita.eng.MIRCrew -


Download via torrent:
Categoria bittorrent BDRip
Descrizione
Killer Joe (2011)+ bonus 18m.H264.italian.english.Ac3-5.1.sub.ita.eng.MIRCrew



NO FOUND ONLY ORIGINAL RELEASE




My release is always in double track audio italian and Original audio
for select it use VLC or dvd player home
not use wmp

Killer Joe

(2011)

+ bonus 18m








Titolo originale Killer Joe
Lingua originale inglese
Paese di produzione Stati Uniti
Anno 2011
Durata 103 min
Genere thriller, noir
Regia William Friedkin
Soggetto Tracy Letts (opera teatrale)
Sceneggiatura Tracy Letts
Produttore Nicolas Chartier,



   Matthew McConaughey: Killer Joe Cooper
   Emile Hirsch: Chris Smith
   Juno Temple: Dottie Smith
   Thomas Haden Church: Ansel Smith
   Gina Gershon: Sharla Smith



Dallas, Texas. Chris Smith, giovane spacciatore, si ritrova nei guai dopo che la madre Adele gli ha rubato e fatto sparire una partita di droga di proprietà di Digger Soames, il boss locale, il quale gli ha dato tempo pochi giorni per ripagarlo della perdita, pena l'uccisione. Il ragazzo è quindi costretto a prendere una terribile decisione: far uccidere la madre per incassare la sostanziosa polizza da 50.000 dollari che la donna ha assicurato sulla propria vita e che ha intestato a Dottie, la dolce e un po' svanita sorella minore di Chris. ...............



Finding himself in considerable debt, Chris, a Texan drug dealer, decides the only solution is to murder his mother to collect the insurance money. Getting together with his father, the ex-husband of Chris' mother, they decide to hire Joe Cooper (a contract killer) who also happens to be a police detective. The plan is that the money will go to Chris' sister Dottie. However due to the size of the contract fee, Chris agrees that Joe can take Dottie as a retainer until the insurance comes through. ........













[spoiler]
General
Complete name                            : Killer Joe (2011)+bonus 18m.ita.eng.sub.ita.MIRCrew\Killer Joe (2011)+bonus 18m.ita.eng.sub.ita.MIRCrew.avi
Format                                   : AVI
Format/Info                              : Audio Video Interleave
File size                                : 1.66 GiB
Duration                                 : 1h 38mn
Overall bit rate                         : 2 422 Kbps
Writing application                      : VirtualDubMod 1.5.4.1 (build 2178/release)
Writing library                          : VirtualDubMod build 2178/release

Video
ID                                       : 0
Format                                   : MPEG-4 Visual
Format profile                           : Advanced [email protected]
Format settings, BVOP                    : 1
Format settings, QPel                    : No
Format settings, GMC                     : No warppoints
Format settings, Matrix                  : Custom
Codec ID                                 : XVID
Codec ID/Hint                            : XviD
Duration                                 : 1h 38mn
Bit rate                                 : 1 517 Kbps
Width                                    : 720 pixels
Height                                   : 384 pixels
Display aspect ratio                     : 1.875
Frame rate                               : 25.000 fps
Color space                              : YUV
Chroma subsampling                       : 4:2:0
Bit depth                                : 8 bits
Scan type                                : Progressive
Compression mode                         : Lossy
Bits/(Pixel*Frame)                       : 0.219
Stream size                              : 1.04 GiB (63%)
Writing library                          : XviD 1.2.0.dev47 (UTC 2006-11-01)

Audio #1
ID                                       : 1
Format                                   : AC-3
Format/Info                              : Audio Coding 3
Mode extension                           : CM (complete main)
Codec ID                                 : 2000
Duration                                 : 1h 38mn
Bit rate mode                            : Constant
Bit rate                                 : 448 Kbps
Channel(s)                               : 6 channels
Channel positions                        : Front: L C R, Side: L R, LFE
Sampling rate                            : 48.0 KHz
Bit depth                                : 16 bits
Compression mode                         : Lossy
Stream size                              : 315 MiB (18%)
Alignment                                : Split accross interleaves
Interleave, duration                     : 96 ms (2.40 video frames)
Interleave, preload duration             : 96 ms
Language                                 : Italian

Audio #2
ID                                       : 2
Format                                   : AC-3
Format/Info                              : Audio Coding 3
Mode extension                           : CM (complete main)
Codec ID                                 : 2000
Duration                                 : 1h 38mn
Bit rate mode                            : Constant
Bit rate                                 : 448 Kbps
Channel(s)                               : 6 channels
Channel positions                        : Front: L C R, Side: L R, LFE
Sampling rate                            : 48.0 KHz
Bit depth                                : 16 bits
Compression mode                         : Lossy
Delay relative to video                  : 40ms
Stream size                              : 315 MiB (18%)
Alignment                                : Split accross interleaves
Interleave, duration                     : 96 ms (2.40 video frames)
Interleave, preload duration             : 96 ms
Language                                 : English






Info: Per scaricare devi usare un client come uTorrent o Transmission
AnnounceURL
udp://tracker.coppersurfer.tk:6969/announce
Hash b6708b673546f7b88382af6c7ab577b46c976cce
Peers seeds: 29 , leech: 6
Size 1.82 GB
Completato 1004x
Aggiunto 07.04.18 - 12:04:27
Uploader   robbyrs
Votazione (Voti: 0)


Condividi questo bittorrent:


html/blog:


bbcode/forum:




Aggiungi Commento


counter