* Dettagli Torrent   globale  | Commenti (0) 


- La Fine Del Mondo - The World s End (2013).XviD.italian.english.Ac3-5.1.sub.ita.eng.MIRCrew -


Download via torrent:
Categoria bittorrent BDRip
Descrizione
The World s End - La Fine Del Mondo (2013).XviD.italian.english.Ac3-5.1.sub.ita.eng.MIRCrew



NO FOUND ONLY ORIGINAL RELEASE



My release is always in double track audio italian and Original audio
for select it use VLC or dvd player home
not use wmp

La Fine Del Mondo

The World's End


(2013)







Titolo originale The World's End
Lingua originale inglese
Paese di produzione Regno Unito, Stati Uniti d'America
Anno 2013
Durata 109 min
Rapporto 2,35:1
Genere commedia, fantascienza
Regia Edgar Wright



   Simon Pegg: Gary King
   Nick Frost: Andrew Knightley
   Paddy Considine: Steven Prince
   Martin Freeman: Oliver Chamberlain
   Eddie Marsan: Peter Page
   Rosamund Pike: Sam Chamberlain
   Pierce Brosnan: Guy Shepherd



Gary King è un estroverso alcolista di mezza età che riesce a rintracciare i suoi quattro amici dei tempi del liceo per riprovare a percorrere il "Miglio Dorato", un tour dei pub che comprende ben dodici locali nella loro città natale di Newton Haven: The First Post, The Old Familiar, The Famous Cock, The Cross Hands, The Good Companions, The Trusty Servant, The Two-Headed Dog, The Mermaid, The Beehive, The King's Head, The Hole in the Wall e infine il The World's End. Il gruppo aveva già provato a percorrere il Miglio Dorato da giovani nel 1990 ma fallirono, fermandosi dopo il nono pub. ................



20 years after attempting an epic pub crawl, five childhood friends reunite when one of them becomes hell bent on trying the drinking marathon again. They are convinced to stage an encore by mate Gary King, a 40-year old man trapped at the cigarette end of his teens, who drags his reluctant pals to their home town and once again attempts to reach the fabled pub, The World's End. As they attempt to reconcile the past and present, they realize the real struggle is for the future,..........











[spoiler]
General
Complete name                            : La Fine Del Mondo - The Worlds End (2013).ita.eng.sub.ita.eng.MIRCrew\La Fine Del Mondo - The Worlds End  (2013).ita.eng.sub.ita.eng.MIRCrew.avi
Format                                   : AVI
Format/Info                              : Audio Video Interleave
File size                                : 1.72 GiB
Duration                                 : 1h 49mn
Overall bit rate                         : 2 258 Kbps
Writing application                      : VirtualDubMod 1.5.10.2 (build 2540/release)
Writing library                          : VirtualDubMod build 2540/release

Video
ID                                       : 0
Format                                   : MPEG-4 Visual
Format profile                           : Advanced [email protected]
Format settings, BVOP                    : 2
Format settings, QPel                    : No
Format settings, GMC                     : No warppoints
Format settings, Matrix                  : Default (H.263)
Codec ID                                 : XVID
Codec ID/Hint                            : XviD
Duration                                 : 1h 49mn
Bit rate                                 : 1 348 Kbps
Width                                    : 720 pixels
Height                                   : 304 pixels
Display aspect ratio                     : 2.35:1
Original display aspect ratio            : 2.35:1
Frame rate                               : 23.976 fps
Color space                              : YUV
Chroma subsampling                       : 4:2:0
Bit depth                                : 8 bits
Scan type                                : Progressive
Compression mode                         : Lossy
Bits/(Pixel*Frame)                       : 0.257
Stream size                              : 1.03 GiB (60%)
Writing library                          : XviD 1.1.2 (UTC 2006-11-01)

Audio #1
ID                                       : 1
Format                                   : AC-3
Format/Info                              : Audio Coding 3
Mode extension                           : CM (complete main)
Codec ID                                 : 2000
Duration                                 : 1h 49mn
Bit rate mode                            : Constant
Bit rate                                 : 448 Kbps
Channel(s)                               : 6 channels
Channel positions                        : Front: L C R, Side: L R, LFE
Sampling rate                            : 48.0 KHz
Bit depth                                : 16 bits
Compression mode                         : Lossy
Stream size                              : 350 MiB (20%)
Alignment                                : Split accross interleaves
Interleave, duration                     : 42 ms (1.00 video frame)
Interleave, preload duration             : 500 ms

Audio #2
ID                                       : 2
Format                                   : AC-3
Format/Info                              : Audio Coding 3
Mode extension                           : CM (complete main)
Codec ID                                 : 2000
Duration                                 : 1h 49mn
Bit rate mode                            : Constant
Bit rate                                 : 448 Kbps
Channel(s)                               : 6 channels
Channel positions                        : Front: L C R, Side: L R, LFE
Sampling rate                            : 48.0 KHz
Bit depth                                : 16 bits
Compression mode                         : Lossy
Stream size                              : 350 MiB (20%)
Alignment                                : Split accross interleaves
Interleave, duration                     : 42 ms (1.00 video frame)
Interleave, preload duration             : 500 ms



Info: Per scaricare devi usare un client come uTorrent o Transmission
AnnounceURL
udp://tracker.coppersurfer.tk:6969/announce
Hash 4ec5e9f9e7bd3382f0d268bb00f100878701515b
Peers seeds: 71 , leech: 12
Size 1.72 GB
Completato 1187x
Aggiunto 06.04.18 - 17:04:49
Uploader   robbyrs
Votazione (Voti: 1)


Condividi questo bittorrent:


html/blog:


bbcode/forum:




Aggiungi Commento


counter